音像图书论坛

 找回密码
 中文注册
搜索

[16bit/44.1khz] 孟庭苇-月亮说话精选集[24K GOLD金碟限量版] 2020年12月[WAV+CUE]

[复制链接]
发表于 2021-1-13 09:26:36 | 显示全部楼层 |阅读模式

马上注册,结交更多好友,享用更多功能,让你轻松玩转社区。

您需要 登录 才可以下载或查看,没有帐号?中文注册

x


                               
登录/注册后可看大图

简介:
环球唱片 孟庭苇-月亮说话精选集[24K GOLD金碟限量版] 2020年12月
曲目:
01.校园里的消息传的特别快
02.你看你看月亮的脸
03.谁的眼泪在飞
04.冬季到台北来看雨
05.不下雨就出太阳吧
06.你听海是不是在笑
07.日以继夜的想你
08.风中有朵雨做的云
09.你究竟有几个好妹妹
10.无声的雨
11.红雨
12.把他换作你
13.紫浣花
14.其实我还是有点在乎


REM DISCID C40FE60E
REM COMMENT "ExactAudioCopy v1.0b3"
PERFORMER "未知艺术家"
TITLE "孟庭苇-月亮说话精选集/金碟版-mimi891214原抓"
FILE "未知艺术家 - 孟庭苇-月亮说话精选集,金碟版.wav" WAVE
TRACK 01 AUDIO
TITLE "音轨01"
PERFORMER "未知艺术家"
INDEX 01 00:00:00
TRACK 02 AUDIO
TITLE "音轨02"
PERFORMER "未知艺术家"
INDEX 00 04:25:55
INDEX 01 04:28:10
TRACK 03 AUDIO
TITLE "音轨03"
PERFORMER "未知艺术家"
INDEX 00 09:02:32
INDEX 01 09:04:62
TRACK 04 AUDIO
TITLE "音轨04"
PERFORMER "未知艺术家"
INDEX 00 14:21:29
INDEX 01 14:23:59
TRACK 05 AUDIO
TITLE "音轨05"
PERFORMER "未知艺术家"
INDEX 00 19:28:23
INDEX 01 19:30:53
TRACK 06 AUDIO
TITLE "音轨06"
PERFORMER "未知艺术家"
INDEX 00 23:26:43
INDEX 01 23:28:73
TRACK 07 AUDIO
TITLE "音轨07"
PERFORMER "未知艺术家"
INDEX 00 29:19:00
INDEX 01 29:21:30
TRACK 08 AUDIO
TITLE "音轨08"
PERFORMER "未知艺术家"
INDEX 00 33:49:44
INDEX 01 33:51:74
TRACK 09 AUDIO
TITLE "音轨09"
PERFORMER "未知艺术家"
INDEX 00 38:10:03
INDEX 01 38:12:33
TRACK 10 AUDIO
TITLE "音轨10"
PERFORMER "未知艺术家"
INDEX 00 43:31:20
INDEX 01 43:33:50
TRACK 11 AUDIO
TITLE "音轨11"
PERFORMER "未知艺术家"
INDEX 00 48:10:03
INDEX 01 48:12:33
TRACK 12 AUDIO
TITLE "音轨12"
PERFORMER "未知艺术家"
INDEX 00 54:34:10
INDEX 01 54:36:43
TRACK 13 AUDIO
TITLE "音轨13"
PERFORMER "未知艺术家"
INDEX 00 59:18:17
INDEX 01 59:20:47
TRACK 14 AUDIO
TITLE "音轨14"
PERFORMER "未知艺术家"
INDEX 00 63:33:23
INDEX 01 63:35:53

Exact Audio Copy V1.0 beta 3 from 29. August 2011

EAC 抓取日志文件从31. 十二月 2020, 22:51

未知艺术家 / 孟庭苇-月亮说话精选集/金碟版-mimi891214原抓

使用驱动器  :PIONEER DVD-RW  DVR-221L  Adapter: 0  ID: 0

读取模式      : 可靠Secure
使用精确流     : 是
清空音频缓存    : 是
使用 C2 指示器 : 否

读取偏移校正:               : 6
读取 Lead-In 和 Lead-Out : 否
用静音填充抓取中丢失偏移的采样       : 是
去除首尾静音块               : 否
在CRC 计算中使用了空样本       : 是
已用接口                  : Win NT 及 2000 本地 Win32 接口

所用输出模式: : 内部 WAV 函数
样本格式    : 44.100 Hz; 16 Bit; 立体声


已抓取 CD 的 TOC

     音轨 |    起始    |    长度    |  起始扇区  |  结束扇区  
    --------------------------------------------
      1 |  0:00.00 |  4:28.10 |      0 |  20109
      2 |  4:28.10 |  4:36.52 |  20110 |  40861
      3 |  9:04.62 |  5:18.72 |  40862 |  64783
      4 | 14:23.59 |  5:06.69 |  64784 |  87802
      5 | 19:30.53 |  3:58.20 |  87803 | 105672
      6 | 23:28.73 |  5:52.32 | 105673 | 132104
      7 | 29:21.30 |  4:30.44 | 132105 | 152398
      8 | 33:51.74 |  4:20.34 | 152399 | 171932
      9 | 38:12.33 |  5:21.17 | 171933 | 196024
    10 | 43:33.50 |  4:38.58 | 196025 | 216932
    11 | 48:12.33 |  6:24.10 | 216933 | 245742
    12 | 54:36.43 |  4:44.04 | 245743 | 267046
    13 | 59:20.47 |  4:15.06 | 267047 | 286177
    14 | 63:35.53 |  4:14.72 | 286178 | 305299


范围状态及错误

已选择范围

     文件名 D:\BaiduYunDownload\未知艺术家 - 孟庭苇-月亮说话精选集,金碟版-mimi891214原抓.wav

     峰值电平 99.9 %
     抓取速度 2.2 X
     范围质量 99.9 %
     复制 CRC 90DFEE6A
     复制成功

没有错误发生


AccurateRip 摘要

音轨  1  在数据库中不存在
音轨  2  在数据库中不存在
音轨  3  在数据库中不存在
音轨  4  在数据库中不存在
音轨  5  在数据库中不存在
音轨  6  在数据库中不存在
音轨  7  在数据库中不存在
音轨  8  在数据库中不存在
音轨  9  在数据库中不存在
音轨 10  在数据库中不存在
音轨 11  在数据库中不存在
音轨 12  在数据库中不存在
音轨 13  在数据库中不存在
音轨 14  在数据库中不存在

没有任何音轨在 AccurateRip 数据库中有记录

状态报告结尾

游客,如果您要查看本帖隐藏内容请回复

提取码.txt

4 Bytes, 阅读权限: 255, 下载次数: 1

售价: 400 音乐币  [记录]

回复

使用道具 举报

您需要登录后才可以回帖 登录 | 中文注册

本版积分规则

QQ|小黑屋|手机版|Archiver|音像图书论坛  

GMT+8, 2021-1-22 05:50 , Processed in 0.181050 second(s), 26 queries .

Powered by Discuz! X3.4

© 2001-2017 Comsenz Inc.

快速回复 返回顶部 返回列表